The Breaker Upperers (2018) [OpenTsubasa]

Two women cynical in love, set up an agency to break couples up as a way to avoid letting go and moving on with their lives.
Directors: Madeleine Sami, Jackie van Beek
Writers: Madeleine Sami, Jackie van Beek
Stars: Madeleine Sami, Jackie van Beek, James Rolleston


General
Complete name : The Breaker Upperers (2018) [OpenTsubasa].mp4
Format : MPEG-4
Format profile : Base Media
Codec ID : isom (isom/iso2/avc1/mp41)
File size : 689 MiB
Duration : 1 h 21 min
Overall bit rate : 1 186 kb/s
Writing application : Lavf58.2.103

Video
ID : 1
Format : AVC
Format/Info : Advanced Video Codec
Format profile : High@L4.1
Format settings : CABAC / 4 Ref Frames
Format settings, CABAC : Yes
Format settings, RefFrames : 4 frames
Codec ID : avc1
Codec ID/Info : Advanced Video Coding
Duration : 1 h 21 min
Bit rate : 1 050 kb/s
Width : 1 280 pixels
Height : 534 pixels
Display aspect ratio : 2.40:1
Original display aspect ratio : 2.40:1
Frame rate mode : Constant
Frame rate : 23.976 (24000/1001) FPS
Color space : YUV
Chroma subsampling : 4:2:0
Bit depth : 8 bits
Scan type : Progressive
Bits/(Pixel*Frame) : 0.064
Stream size : 610 MiB (88%)
Writing library : x264 core 152
Codec configuration box : avcC

Audio
ID : 2
Format : AAC LC
Format/Info : Advanced Audio Codec Low Complexity
Codec ID : mp4a-40-2
Duration : 1 h 21 min
Bit rate mode : Constant
Bit rate : 130 kb/s
Channel(s) : 2 channels
Channel layout : L R
Sampling rate : 48.0 kHz
Frame rate : 46.875 FPS (1024 SPF)
Compression mode : Lossy
Stream size : 75.2 MiB (11%)
Default : Yes
Alternate group : 1

  

Leave a Reply

Your email address will not be published. Required fields are marked *