The Ballad of Buster Scruggs (2018) [OpenTsubasa]

An anthology film comprised of six stories, each dealing with a different aspect of life in the Old West.
Directors: Ethan Coen, Joel Coen
Writers: Joel Coen, Ethan Coen
Stars: Tim Blake Nelson, Willie Watson, Clancy Brown

General
Complete name : The Ballad of Buster Scruggs (2018) [OpenTsubasa].mp4
Format : MPEG-4
Format profile : Base Media
Codec ID : isom (isom/iso2/avc1/mp41)
File size : 1.10 GiB
Duration : 2 h 13 min
Overall bit rate : 1 187 kb/s
Writing application : Lavf58.19.100

Video
ID : 1
Format : AVC
Format/Info : Advanced Video Codec
Format profile : High@L4.1
Format settings : CABAC / 4 Ref Frames
Format settings, CABAC : Yes
Format settings, RefFrames : 4 frames
Codec ID : avc1
Codec ID/Info : Advanced Video Coding
Duration : 2 h 13 min
Bit rate : 1 050 kb/s
Width : 1 280 pixels
Height : 682 pixels
Display aspect ratio : 1.85:1
Frame rate mode : Constant
Frame rate : 23.976 (24000/1001) FPS
Color space : YUV
Chroma subsampling : 4:2:0
Bit depth : 8 bits
Scan type : Progressive
Bits/(Pixel*Frame) : 0.050
Stream size : 1 001 MiB (88%)
Writing library : x264 core 157
Codec configuration box : avcC

Audio
ID : 2
Format : AAC LC
Format/Info : Advanced Audio Codec Low Complexity
Codec ID : mp4a-40-2
Duration : 2 h 13 min
Duration_LastFrame : -11 ms
Bit rate mode : Constant
Bit rate : 132 kb/s
Channel(s) : 2 channels
Channel layout : L R
Sampling rate : 48.0 kHz
Frame rate : 46.875 FPS (1024 SPF)
Compression mode : Lossy
Stream size : 125 MiB (11%)
Default : Yes
Alternate group : 1

 

Leave a Reply

Your email address will not be published. Required fields are marked *